PDA

View Full Version : Training Day | 2001 | BluRay | 1080p | VC1 | Remux | HiFi



Netwolf_
04-13-2012, 05:21 PM
http://i35.fastpic.ru/big/2012/0413/9b/419de6b9a7cd43f0bfd152d42b95b79b.jpg

IMDB


http://www.imdb.com/title/tt0139654/

NFO




Screen







INFO



Video

ID : 1

Format : VC-1

Format profile : AP@L3

Codec ID : WVC1

Codec ID/Hint : Microsoft

Duration : 2h 1mn

Bit rate : 16.1 Mbps

Width : 1 920 pixels

Height : 1 080 pixels

Display aspect ratio : 16:9

Frame rate : 23.976 fps

Resolution : 24 bits

Colorimetry : 4:2:0

Scan type : Progressive

Bits/(Pixel*Frame) : 0.324

Stream size : 13.7 GiB (94%)



Audio

ID : 2

Format : AC-3

Format/Info : Audio Coding 3

Codec ID : A_AC3

Duration : 2h 2mn

Bit rate mode : Constant

Bit rate : 640 Kbps

Channel(s) : 6 channels

Channel positions : Front: L C R, Surround: L R, LFE

Sampling rate : 48.0 KHz

Stream size : 559 MiB (4%)



Text #1

ID : 3

Format : UTF-8

Codec ID : S_TEXT/UTF8

Codec ID/Info : UTF-8 Plain Text



Text #2

ID : 4

Format : VobSub

Codec ID : S_VOBSUB

Codec ID/Info : The same subtitle format used on DVDs

Language : French



Text #3

ID : 5

Format : VobSub

Codec ID : S_VOBSUB

Codec ID/Info : The same subtitle format used on DVDs

Language : German



Text #4

ID : 6

Format : VobSub

Codec ID : S_VOBSUB

Codec ID/Info : The same subtitle format used on DVDs

Language : Russian

http://i2.lulzimg.com/6efade2cf7.png


http://www.netload.in/dateiiiH0po7wNs/Training.Day.2001.BluRay.1080p.AC3.VC1.Remux-HiFi.part01.rar.htm
http://www.netload.in/dateiEuMUSyXbAy/Training.Day.2001.BluRay.1080p.AC3.VC1.Remux-HiFi.part01.rar.htm
http://www.netload.in/dateiStaaMF6akq/Training.Day.2001.BluRay.1080p.AC3.VC1.Remux-HiFi.part02.rar.htm
http://www.netload.in/dateiKBpVLA2c4Q/Training.Day.2001.BluRay.1080p.AC3.VC1.Remux-HiFi.part02.rar.htm
http://www.netload.in/dateiZkv6hIdlTK/Training.Day.2001.BluRay.1080p.AC3.VC1.Remux-HiFi.part03.rar.htm
http://www.netload.in/dateiu2D04lhjDG/Training.Day.2001.BluRay.1080p.AC3.VC1.Remux-HiFi.part03.rar.htm
http://www.netload.in/datei4dC6gbOyKE/Training.Day.2001.BluRay.1080p.AC3.VC1.Remux-HiFi.part04.rar.htm
http://www.netload.in/dateiY5yPcxeyL3/Training.Day.2001.BluRay.1080p.AC3.VC1.Remux-HiFi.part04.rar.htm
http://www.netload.in/datei11dymb2I0o/Training.Day.2001.BluRay.1080p.AC3.VC1.Remux-HiFi.part05.rar.htm
http://www.netload.in/dateiQUWkpsb0fK/Training.Day.2001.BluRay.1080p.AC3.VC1.Remux-HiFi.part05.rar.htm
http://www.netload.in/dateiCGQCZbvaHu/Training.Day.2001.BluRay.1080p.AC3.VC1.Remux-HiFi.part06.rar.htm
http://www.netload.in/dateiSPGmyG3Oqz/Training.Day.2001.BluRay.1080p.AC3.VC1.Remux-HiFi.part06.rar.htm
http://www.netload.in/datei48WxT0pj4o/Training.Day.2001.BluRay.1080p.AC3.VC1.Remux-HiFi.part07.rar.htm
http://www.netload.in/dateiVoN8dBr4cQ/Training.Day.2001.BluRay.1080p.AC3.VC1.Remux-HiFi.part07.rar.htm
http://www.netload.in/dateiegVr7qfwKo/Training.Day.2001.BluRay.1080p.AC3.VC1.Remux-HiFi.part08.rar.htm
http://www.netload.in/datei6aeJyapp4U/Training.Day.2001.BluRay.1080p.AC3.VC1.Remux-HiFi.part08.rar.htm
http://www.netload.in/dateiUkPiMhAWIN/Training.Day.2001.BluRay.1080p.AC3.VC1.Remux-HiFi.part09.rar.htm
http://www.netload.in/dateigGGWgu5rjj/Training.Day.2001.BluRay.1080p.AC3.VC1.Remux-HiFi.part09.rar.htm
http://www.netload.in/dateio8wQCDyoSj/Training.Day.2001.BluRay.1080p.AC3.VC1.Remux-HiFi.part10.rar.htm
http://www.netload.in/dateiKUC5finAYW/Training.Day.2001.BluRay.1080p.AC3.VC1.Remux-HiFi.part10.rar.htm
http://www.netload.in/dateik6iL0vU1Fv/Training.Day.2001.BluRay.1080p.AC3.VC1.Remux-HiFi.part11.rar.htm
http://www.netload.in/dateid6Smg2OFfN/Training.Day.2001.BluRay.1080p.AC3.VC1.Remux-HiFi.part11.rar.htm
http://www.netload.in/dateix8CVpxcsKO/Training.Day.2001.BluRay.1080p.AC3.VC1.Remux-HiFi.part12.rar.htm
http://www.netload.in/dateikeFFmGRON8/Training.Day.2001.BluRay.1080p.AC3.VC1.Remux-HiFi.part12.rar.htm
http://www.netload.in/dateiZU8XxD53IP/Training.Day.2001.BluRay.1080p.AC3.VC1.Remux-HiFi.part13.rar.htm
http://www.netload.in/dateidbyvRNdPAw/Training.Day.2001.BluRay.1080p.AC3.VC1.Remux-HiFi.part13.rar.htm
http://www.netload.in/dateiON2XKMzWbE/Training.Day.2001.BluRay.1080p.AC3.VC1.Remux-HiFi.part14.rar.htm
http://www.netload.in/dateiGgFOzHjJ1B/Training.Day.2001.BluRay.1080p.AC3.VC1.Remux-HiFi.part14.rar.htm
http://www.netload.in/datei6HiYnhG7YF/Training.Day.2001.BluRay.1080p.AC3.VC1.Remux-HiFi.part15.rar.htm
http://www.netload.in/dateiUV2RESvnOT/Training.Day.2001.BluRay.1080p.AC3.VC1.Remux-HiFi.part15.rar.htm